#TITLE:Lush IV;
#SUBTITLE:;
#ARTIST:MaxX OmegA;
#TITLETRANSLIT:;
#SUBTITLETRANSLIT:;
#ARTISTTRANSLIT:;
#CREDIT:;
#BANNER:LushIV-bn.png;
#BACKGROUND:LushIV-bg.png;
#LYRICSPATH:;
#CDTITLE:!iomegatitle.png;
#MUSIC:Lush IV.mp3;
#OFFSET:0.000;
#SAMPLESTART:104.050;
#SAMPLELENGTH:12.000;
#SELECTABLE:YES;
#BPMS:0.000=204.000,4.000=210.000,228.000=105.000,232.000=210.000,432.000=105.000;
#STOPS:;
#BGCHANGES:;
// cache tags:
#FIRSTBEAT:4.000;
#LASTBEAT:436.000;
#SONGFILENAME:Songs/nhac/Lush IV/Lush IV.sm;
#HASMUSIC:1;
#HASBANNER:1;
#MUSICLENGTH:133.172;
// end cache tags

//---------------dance-single - ----------------
#NOTES:
     dance-single:
     :
     Hard:
     13:
     1.000,1.000,0.143,0.751,1.000,917.000,19.000,100.000,0.000,3.000:  // measure 1
0000
0000
0000
0000
,  // measure 2
2002
3003
0000
0000
0000
0000
0000
0000
0000
0000
0000
0000
0020
0030
0000
0000
2000
3000
0000
0000
0000
0000
0000
0000
0200
0300
0000
0000
0000
0000
0000
0000
,  // measure 3
0022
0033
0000
0000
0000
0000
0000
0000
0000
0000
0000
0000
0200
0300
0000
0000
0002
0003
0000
0000
0000
0000
0000
0000
2000
3000
0000
0000
0000
0000
0000
0000
,  // measure 4
0001
0000
0010
0000
0001
0000
1000
0000
0100
0000
0010
0000
0001
0000
1000
0000
0010
0000
0100
0000
0002
0003
0000
0000
0020
0030
0000
0000
0000
0000
0000
0000
,  // measure 5
2002
3003
0000
0000
0000
0000
0000
0000
0000
0000
0000
0000
0200
0300
0000
0000
0002
0003
0000
0000
0000
0000
0000
0000
0020
0030
0000
0000
0000
0000
0000
0000
,  // measure 6
2020
3030
0000
0000
0000
0000
0000
0000
0000
0000
0000
0000
0200
0300
0000
0000
2000
3000
0000
0000
0000
0000
0000
0000
0020
0030
0000
0000
0000
0000
0000
0000
,  // measure 7
0022
0033
0000
0000
0000
0000
0000
0000
0000
0000
0000
0000
0200
0300
0000
0000
2000
3000
0000
0000
0000
0000
0000
0000
0200
0300
0000
0000
0000
0000
0000
0000
,  // measure 8
0220
0330
0000
0000
0000
0000
0000
0000
0000
0000
0000
0000
0002
0003
0000
0000
0020
0030
0000
0000
0000
0000
0000
0000
0200
0300
0000
0000
0000
0000
0000
0000
,  // measure 9
2020
3030
0000
0000
0000
0000
0000
0000
0000
0000
0000
0000
2000
3000
0000
0000
0020
0030
0000
0000
0000
0000
0000
0000
0002
0003
0000
0000
0000
0000
0000
0000
,  // measure 10
2002
3003
0000
0000
0000
0000
0000
0000
0100
0000
0000
0000
0000
0000
0000
0000
2002
3003
0000
0000
0000
0000
0000
0000
0010
0000
0000
0000
2002
3003
0000
0000
,  // measure 11
0000
0000
0000
0000
2002
3003
0000
0000
0100
0000
0000
0000
0000
0000
0000
0000
0010
0000
2002
3003
0000
0000
2002
3003
0000
0000
0000
0000
0000
0000
0000
0000
,  // measure 12
0220
0330
0000
0000
0000
0000
0000
0000
2000
0000
0000
0000
0000
0000
0000
0000
0020
0000
0000
0000
3000
0000
0000
0000
0002
0000
0000
0000
0030
0000
0000
0000
,  // measure 13
2003
3000
0100
0000
1000
0000
0100
0000
0002
0003
0010
0000
0001
0000
0010
0000
2000
3000
0000
0000
0000
0000
0000
0000
2002
3003
0000
0000
0000
0000
0000
0000
,  // measure 14
0020
0000
0000
0000
0000
0000
0030
0000
0000
0000
0000
0000
0000
0000
0000
0000
2000
0000
0000
0000
0000
3000
0000
0000
0000
0000
0000
0000
0000
0000
0000
0000
0002
0000
0000
0000
0000
0003
0000
0000
0000
0000
0000
0000
0000
0000
0000
0000
0100
0000
0000
0000
0000
0000
0000
0000
0000
0000
0000
0000
0000
0000
0000
0000
0000
0000
0000
0000
0000
0000
0000
0000
0000
0000
0000
0000
0000
0000
0000
0000
0000
0000
0000
0000
0000
0000
0000
0000
0000
0000
0000
0000
0000
0000
0000
0000
0000
0000
0000
0000
0000
0000
0000
0000
0000
0000
0000
0000
0001
0000
0000
0000
0000
0000
0000
0000
0000
0000
0000
0000
0000
0000
0000
0000
0000
0000
0000
0000
0000
0000
0000
0000
0000
0000
0000
0000
0000
0000
0000
0000
0000
0000
0000
0000
0000
0000
0000
0000
0000
0000
0000
0000
0000
0000
0000
0000
0000
0000
0000
0000
0000
0000
0000
0000
0000
0000
0000
0000
0000
0000
0000
0000
0000
0000
0000
0000
0000
0000
0000
0000
0000
0000
0000
0000
0000
0000
0000
0000
0000
0000
0000
0000
,  // measure 15
0000
1000
0000
0000
0000
0000
0000
0000
0010
0000
0000
0000
0000
0000
0000
0000
,  // measure 16
0000
0000
0000
1000
0000
0100
0000
0001
0000
0010
0000
0100
2000
0000
0000
0000
0000
0000
0000
0000
0000
0000
0000
0000
,  // measure 17
0000
0000
0000
0000
,  // measure 18
3001
0100
0001
0000
0100
0000
0001
0000
0100
1000
0010
0000
0100
0000
0001
0000
,  // measure 19
1000
0100
0010
0000
1000
0000
0010
0000
1000
0001
0100
0000
0010
0000
1000
0000
,  // measure 20
0001
0100
0010
0000
0100
0000
1000
0000
0001
0010
0100
0000
1000
0000
0001
0000
,  // measure 21
0100
0010
1000
0000
0100
0000
0010
0000
0001
0010
0100
0000
0010
0000
0001
0000
,  // measure 22
1000
0010
1000
0000
0001
0000
0010
0000
1000
0100
1000
0000
0001
0000
0010
0000
,  // measure 23
0100
0001
0100
0000
1000
0000
0100
0000
0010
0001
0010
0000
0100
0000
0001
0000
,  // measure 24
1000
0100
0010
0000
0001
0000
0010
0000
0100
0001
1000
0000
0100
0000
0010
0000
,  // measure 25
0100
0001
0100
0000
1000
0000
0010
0000
0001
1000
0100
0000
0010
0000
0100
0000
,  // measure 26
2000
3000
0000
0000
0000
0000
0000
0000
0000
0000
0000
0000
0000
0000
0000
0000
0000
0000
0000
0000
0000
0000
0000
0000
0000
0000
0000
0000
0000
0000
0000
0000
,  // measure 27
0000
0000
0000
0000
,  // measure 28
0020
0030
0000
0000
0000
0000
0000
0000
0000
0000
0000
0000
0000
0000
0000
0000
0000
0000
0000
0000
0000
0000
0000
0000
0000
0000
0000
0000
0000
0000
0000
0000
,  // measure 29
0000
0000
0000
0000
,  // measure 30
0200
0300
0000
0000
0000
0000
0000
0000
0000
0000
0000
0000
0000
0000
0000
0000
0000
0000
0000
0000
0000
0000
0000
0000
0000
0000
0000
0000
0000
0000
0000
0000
,  // measure 31
0000
0000
0000
0000
,  // measure 32
0002
0003
1000
0000
0100
0000
0010
0000
0001
0000
1000
0000
0010
0000
0100
0000
0001
0000
0010
0000
0100
0000
1000
0000
0001
0000
0100
0000
0010
0000
1000
0000
,  // measure 33
0002
0000
0000
0000
,  // measure 34
2003
3000
0000
0000
0000
0000
0000
0000
0010
0000
0000
0000
0000
0000
0000
0000
0000
0000
0000
0000
0000
0000
0000
0000
0010
0000
0000
0000
0000
0000
0000
0000
,  // measure 35
0000
0100
0000
1000
,  // measure 36
0002
0003
0000
0000
0000
0000
0000
0000
0100
0000
0000
0000
0000
0000
0000
0000
0000
0000
0000
0000
0000
0000
0000
0000
0001
0000
0000
0000
0000
0000
0000
0000
,  // measure 37
0000
0010
0000
0001
,  // measure 38
0200
0300
0000
0000
0000
0000
0000
0000
1000
0000
0000
0000
0000
0000
0000
0000
0000
0000
0000
0000
0000
0000
0000
0000
0010
0000
0000
0000
0000
0000
0000
0000
,  // measure 39
0000
0100
0000
1000
,  // measure 40
0020
0030
1000
0000
0001
0000
0100
0000
0010
0000
1000
0000
0001
0000
0100
0000
0010
0000
1000
0000
0001
0000
0100
0000
0010
0000
1000
0000
0001
0000
0100
0000
,  // measure 41
0020
0000
0000
0000
,  // measure 42
1030
0100
1000
0000
0001
0000
0010
0000
0100
0001
1000
0000
0100
0000
0010
0000
,  // measure 43
0001
0100
0010
0000
1000
0000
0001
0000
0010
0100
1000
0000
0001
0000
0100
0010
,  // measure 44
1000
0001
0100
0000
0010
0000
1000
0000
0100
0010
0001
0000
0100
0000
0010
0000
,  // measure 45
1000
0001
0010
0000
0100
0000
0001
0000
1000
0010
0100
0000
0001
0010
0100
1000
,  // measure 46
0001
0100
0010
0000
1000
0000
0100
0000
0010
1000
0001
0000
0100
0000
0010
0000
,  // measure 47
1000
0001
0010
0000
0001
0000
1000
0000
0100
0010
0001
0000
1000
0000
0010
0000
,  // measure 48
0001
0010
0100
0000
1000
0000
0001
0000
0010
0100
1000
0000
0001
0000
0010
0000
,  // measure 49
0100
1000
0001
0000
0100
0000
0010
0000
1000
0100
0010
0000
0001
0100
0010
0001
,  // measure 50
1000
0100
1000
0000
0001
0000
0010
0000
0100
0001
1000
0000
0100
0000
0010
0000
,  // measure 51
0001
0100
0010
0000
1000
0000
0001
0000
0010
0100
1000
0000
0001
0000
0100
0010
,  // measure 52
1000
0001
0100
0000
0010
0000
1000
0000
0100
0010
0001
0000
0100
0000
0010
0000
,  // measure 53
1000
0001
0010
0000
0100
0000
0001
0000
1000
0010
0100
0000
0001
0010
0100
1000
,  // measure 54
0001
0100
0010
0000
1000
0000
0100
0000
0010
1000
0001
0000
0100
0000
0010
0000
,  // measure 55
1000
0001
0010
0000
0001
0000
1000
0000
0100
0010
0001
0000
1000
0000
0010
0000
,  // measure 56
0001
0010
0100
0000
1000
0000
0001
0000
0010
0100
1000
0000
0001
0000
0010
0000
,  // measure 57
0100
1000
0001
0000
0100
0000
0010
0000
1000
0100
0010
0000
0001
0100
0010
1000
,  // measure 58
0000
0000
0000
0000
,  // measure 59
1000
0100
0001
0000
1000
0000
0010
0000
0100
0001
0010
0000
0100
0000
1000
0000
,  // measure 60
0001
0100
0010
0000
0001
0000
0100
0000
0010
1000
0001
0000
0010
0000
0100
0000
,  // measure 61
1000
0001
0010
0000
0001
0000
1000
0000
0100
1000
0100
0000
0010
0000
0100
0000
,  // measure 62
0001
0010
1000
0000
0001
0000
0100
0000
0010
1000
0100
0000
0001
0000
0010
0000
,  // measure 63
1000
0001
0100
0000
0010
0000
0001
0000
1000
0100
1000
0000
0001
0000
0100
0000
,  // measure 64
0010
0001
0100
0000
0010
0000
1000
0000
0100
0001
1000
0000
0100
0000
0010
0000
,  // measure 65
1000
0001
0100
0000
0010
0000
1000
0000
0100
0001
0010
0000
0001
0000
0100
0000
,  // measure 66
0010
0001
0100
0000
1000
0000
0010
0000
0100
0001
0010
0000
0100
0000
1000
0000
,  // measure 67
0202
0300
0000
0000
0000
0000
0000
0000
1000
0000
0000
0000
0100
0000
0000
0000
1000
0000
0000
0000
0100
0000
0000
0000
0010
0000
0000
0000
0100
0000
0000
0000
,  // measure 68
1000
0000
1000
0010
0100
1000
0010
0100
,  // measure 69
2023
0030
0000
0000
0000
0000
0000
0000
0010
0000
0000
0000
0100
0000
0000
0000
0001
0000
0000
0000
0010
0000
0000
0000
0100
0000
0000
0000
0010
0000
0000
0000
,  // measure 70
0001
0000
0100
0001
0010
0100
0001
0100
,  // measure 71
3022
0003
0000
0000
0000
0000
0000
0000
0100
0000
0000
0000
1000
0000
0000
0000
0001
0000
0000
0000
0100
0000
0000
0000
1000
0000
0000
0000
0100
0000
0000
0000
,  // measure 72
0001
0000
1000
0001
0100
0001
1000
0100
,  // measure 73
2230
3000
0000
0000
0000
0000
0000
0000
0001
0000
0000
0000
0010
0000
0000
0000
0001
0000
0000
0000
0010
0000
0000
0000
1000
0000
0000
0000
0010
0000
0000
0000
,  // measure 74
1000
0000
0001
1000
0010
0001
1000
0010
,  // measure 75
2300
3000
0000
0000
0000
0000
0000
0000
0010
0000
0000
0000
0000
0000
0000
0000
0000
0000
0000
0000
0000
0000
0000
0000
0100
0000
0000
0000
0000
0000
0000
0000
,  // measure 76
0000
0010
0000
0100
,  // measure 77
0002
0003
0000
0000
0000
0000
0000
0000
1000
0000
0000
0000
0000
0000
0000
0000
0000
0000
0000
0000
0000
0000
0000
0000
0010
0000
0000
0000
0000
0000
0000
0000
,  // measure 78
0000
0100
0000
0001
,  // measure 79
0200
0300
0000
0000
0000
0000
0000
0000
0010
0000
0000
0000
0000
0000
0000
0000
0000
0000
0000
0000
0000
0000
0000
0000
1000
0000
0000
0000
0000
0000
0000
0000
,  // measure 80
0000
0001
0000
0100
,  // measure 81
0020
0030
0100
0000
0001
0000
1000
0000
0010
0000
0100
0000
0001
0000
1000
0000
0010
0000
0100
0000
0001
0000
1000
0000
0010
0000
0100
0000
0001
0000
1000
0000
,  // measure 82
0020
0000
0000
0000
,  // measure 83
0032
0003
0100
0000
0010
0000
0000
0000
1000
0000
0000
0000
0001
0000
0000
0000
0020
0030
0100
0000
1000
0000
0000
0000
0001
0000
0000
0000
0100
0000
0000
0000
,  // measure 84
0020
0030
0001
0000
1000
0000
0000
0000
0100
0000
0000
0000
0010
0000
0000
0000
0002
0003
0010
0000
0001
0000
0000
0000
0010
0000
0000
0000
0100
0000
0000
0000
,  // measure 85
2000
3000
0010
0000
0001
0000
0000
0000
0100
0000
0000
0000
0010
0000
0000
0000
2000
3000
0001
0000
0100
0000
0000
0000
1000
0000
0000
0000
0010
0000
0000
0000
,  // measure 86
0200
0300
0001
0000
0010
0000
0000
0000
1000
0000
0000
0000
0100
0000
0000
0000
0002
0003
1000
0000
0100
0000
0000
0000
0010
0000
0000
0000
0100
0000
0000
0000
,  // measure 87
0002
0003
0010
0000
1000
0000
0000
0000
0100
0000
0000
0000
0001
0000
0000
0000
0200
0300
0010
0000
1000
0000
0000
0000
0100
0000
0000
0000
0001
0000
0000
0000
,  // measure 88
2000
3000
0010
0000
0100
0000
0000
0000
0001
0000
0000
0000
0010
0000
0000
0000
0200
0300
1000
0000
0001
0000
0000
0000
0100
0000
0000
0000
0010
0000
0000
0000
,  // measure 89
1000
0001
0100
0010
1000
0001
0100
0010
1000
0001
0100
0010
1000
0001
0100
0010
,  // measure 90
1000
0001
0100
0010
1000
0001
0100
0010
1000
0001
0100
0010
1000
0001
0100
0010
1000
0001
0100
0010
1000
0001
0100
0010
1000
0001
0100
0010
1000
0001
0100
0010
,  // measure 91
1000
0001
1000
0000
0001
0000
0010
0000
0100
0001
1000
0010
0100
0001
1000
0010
,  // measure 92
0100
0001
1000
0000
0100
0000
0010
0000
1000
0100
0001
1000
0010
0100
0001
0010
,  // measure 93
0100
1000
0001
0000
0100
0000
0010
0000
1000
0001
0100
0010
1000
0100
0010
0001
,  // measure 94
0010
0100
1000
0000
0001
0000
0100
0000
0010
1000
0001
0100
0010
1000
0100
0010
,  // measure 95
0001
0010
0100
1000
0001
0000
0100
0000
0010
1000
0001
0010
0100
0010
0001
0010
,  // measure 96
0100
1000
0001
0100
1000
0000
0010
0000
0100
1000
0001
1000
0100
1000
0001
0010
,  // measure 97
0100
1000
0001
1000
0100
0000
0010
0000
0100
0001
0100
0010
1000
0010
0100
0001
,  // measure 98
1000
0010
0100
0001
0010
0000
0001
0000
1000
0100
0010
0001
0010
0100
1000
0100
,  // measure 99
0001
0010
0001
0010
1000
0100
1000
0100
0001
0010
0100
1000
0010
0100
0001
1000
,  // measure 100
0100
0010
0001
0100
0010
1000
0100
0010
0001
1000
0010
0100
0001
1000
0010
0100
,  // measure 101
0001
1000
0001
1000
0010
0100
0010
0100
0001
1000
0100
0010
0001
1000
0001
0010
,  // measure 102
0100
1000
0001
0010
0100
0001
1000
0100
0010
0001
1000
0100
1000
0001
0100
0010
,  // measure 103
0001
0000
0000
0000
0000
0000
0000
0000
0000
0000
0000
0000
0010
0000
0000
0000
0100
0000
0000
0000
1000
0000
0000
0000
0100
0000
0000
0001
0000
0000
0010
0000
0000
1000
0000
0000
0100
0000
0000
0001
0000
0000
1000
0000
0000
0010
0000
0000
,  // measure 104
0100
0001
0010
0001
1000
0100
0010
0001
1000
0010
1000
0001
0010
0100
1000
0001
,  // measure 105
0010
0001
1000
0100
0010
0001
1000
0010
0100
0001
1000
0010
0100
1000
0001
0010
,  // measure 106
0100
1000
0001
0100
0010
1000
0100
0010
0001
0010
0100
1000
0001
0010
0100
1000
,  // measure 107
0010
0000
0100
0000
0001
0000
1000
0000
0010
0000
0100
0000
0001
0000
1000
0000
0010
0100
0001
1000
0010
0100
0001
1000
0020
0000
0000
0000
0000
0000
0000
0000
,  // measure 108
0000
0000
0000
0000
0000
0000
0000
0000
0000
0000
0000
0000
0000
0000
0000
0000
0130
0001
1000
0010
0100
0001
1000
0010
0100
0000
0001
0000
1000
0000
0010
0000
,  // measure 109
0200
0000
0000
0000
,  // measure 110
0300
0000
0000
0000
;

//---------------dance-single - ----------------
#NOTES:
     dance-single:
     :
     Challenge:
     17:
     1.000,1.000,0.473,1.000,1.000,1515.000,63.000,142.000,0.000,6.000:  // measure 1
0000
0000
0000
0000
,  // measure 2
2002
3003
0000
0000
0010
0000
0000
0000
0100
0000
0000
0000
0022
0033
0000
0000
2020
3030
0000
0000
0001
0000
0000
0000
0220
0330
0000
0000
1000
0000
0000
0000
,  // measure 3
0202
0303
0000
0000
1000
0000
0000
0000
0100
0000
0000
0000
0022
0033
0000
0000
0202
0303
0000
0000
0010
0000
0000
0000
2200
3300
0000
0000
0001
0000
0000
0000
,  // measure 4
1000
0000
0100
0000
1000
0000
0001
0000
0010
0000
0100
0000
1000
0000
0100
0000
0010
0000
0001
0000
1000
0100
0010
0001
1000
0000
0000
0000
0100
0000
0000
0000
,  // measure 5
2002
3003
0000
0000
0100
0000
0000
0000
0001
0000
0000
0000
0220
0330
0000
0000
2020
3030
0000
0000
0100
0000
0000
0000
0022
0033
0000
0000
1000
0000
0000
0000
,  // measure 6
0202
0303
0000
0000
1000
0000
0000
0000
0100
0000
0000
0000
0022
0033
0000
0000
2200
3300
0000
0000
0001
0000
0000
0000
0220
0330
0000
0000
0100
0000
0000
0000
,  // measure 7
2002
3003
0000
0000
0010
0000
0000
0000
0001
0000
0000
0000
2200
3300
0000
0000
0220
0330
0000
0000
1000
0000
0000
0000
0022
0033
0000
0000
1000
0000
0000
0000
,  // measure 8
0202
0303
0000
0000
0010
0000
0000
0000
1000
0000
0000
0000
0220
0330
0000
0000
0220
0330
0000
0000
0001
0000
0000
0000
0220
0330
0000
0000
0001
0000
0000
0000
,  // measure 9
2200
3300
0000
0000
0010
0000
0000
0000
0001
0000
0000
0000
2200
3300
0000
0000
0022
0033
0000
0000
0100
0000
0000
0000
2002
3003
0000
0000
0010
0000
0000
0000
,  // measure 10
2200
3300
0000
0000
0000
0000
0000
0000
0000
0000
0000
0000
1000
0100
1000
0100
0022
0033
0000
0000
0000
0000
0101
0000
0000
0000
0000
0000
0220
0330
0000
0000
,  // measure 11
0000
0000
0000
0000
2200
3300
0000
0000
0000
0000
0000
0000
0010
1000
0010
1000
0000
0202
0303
0000
0000
0000
0202
0303
1000
0000
0000
0000
0010
0000
0000
0000
,  // measure 12
2002
0000
0000
0000
0000
0000
3003
0000
0000
0000
0000
0000
0000
0000
0000
0000
0000
0000
0000
0000
0000
0000
0000
0000
0100
0000
0000
0000
0000
0000
0000
0000
0000
0000
0000
0000
0000
0000
0000
0000
0000
0000
0000
0000
0000
0000
0000
0000
1000
0000
0000
0000
0000
0000
0100
0000
0000
0000
0000
0000
0010
0000
0000
0000
0000
0000
0001
0000
0000
0000
0000
0000
1000
0000
0000
0000
0000
0000
0100
0000
0000
0000
0000
0000
0010
0000
0000
0000
0000
0000
0001
0000
0000
0000
0000
0000
1000
0000
0000
0000
0100
0000
0000
0000
0010
0000
0000
0000
0001
0000
0000
0000
1000
0000
0000
0000
0100
0000
0000
0000
0010
0000
0000
0000
0001
0000
0000
0000
1000
0000
0000
0000
0100
0000
0000
0000
0010
0000
0000
0000
0001
0000
0000
0000
2000
0000
0000
0000
0000
0000
0000
0000
0000
0000
0000
0000
0000
0000
0000
0000
0000
0000
0000
0000
0000
0000
0000
0000
0000
0000
0000
0000
0000
0000
0000
0000
0000
0000
0000
0000
0000
0000
0000
0000
0000
0000
0000
0000
0000
0000
0000
0000
,  // measure 13
3011
0000
0100
0000
0011
0000
0100
0000
0011
0000
0100
0000
0011
0000
0100
0000
0011
0000
0000
0000
0000
0000
0000
0000
2200
3300
0000
0000
0000
0000
0000
0000
,  // measure 14
0202
0000
0000
0000
0000
0303
0000
0000
0000
0000
0000
0000
0000
0000
0000
0000
0220
0000
0000
0000
0000
0330
0000
0000
0000
0000
0000
0000
0000
0000
0000
0000
2020
0000
0000
0000
0000
3030
0000
0000
0000
0000
0000
0000
0000
0000
0000
0000
2002
0000
0000
0000
0000
3003
0010
0000
0000
0000
0000
0000
0100
0000
0000
0000
0000
0000
1000
0000
0000
0000
0000
0000
0001
0000
0000
0000
0000
0000
0010
0000
0000
0000
0000
0000
0100
0000
0000
0000
0000
0000
1000
0000
0000
0000
0000
0000
0001
0000
0000
0000
0000
0000
0010
0000
0000
0000
0000
0000
0100
0000
0000
0000
0000
0000
1000
0000
0000
0000
0000
0000
0001
0000
0000
0000
0000
0000
0100
0000
0000
0000
0000
0000
0001
0000
0000
0000
0000
0000
0100
0000
0000
0000
0000
0000
0001
0000
0000
0000
0000
0000
0100
0000
0000
0000
0000
0000
0001
0000
0000
0000
0000
0000
0100
0000
0000
0000
0000
0000
0001
0000
0000
0000
0000
0000
0100
0000
0000
0000
0000
0000
0001
0000
0000
0000
0000
0000
0100
0000
0000
0000
0000
0000
,  // measure 15
0001
0100
0010
1000
0001
0100
0010
1000
0001
0100
0010
1000
0001
0100
0010
1000
0001
0010
0100
1000
0001
0100
0010
1000
0001
0100
0010
1000
0001
0010
0100
1000
,  // measure 16
0001
0010
0100
1000
0001
0100
0020
0000
0000
0000
0000
0000
,  // measure 17
0000
0000
0000
0000
,  // measure 18
2030
3000
0100
0000
0001
0000
0100
0001
0100
0000
1000
0000
0001
0000
0100
0000
0010
0000
0100
0000
1000
0000
0100
0000
0001
0000
0010
0000
1000
0001
1000
0001
,  // measure 19
2000
3000
0100
0000
0001
0010
0100
1000
0001
0000
0100
0000
0010
0000
1000
0000
0001
0000
0100
0000
0010
0000
0001
0000
0010
0000
0100
0000
1000
0100
0010
0001
,  // measure 20
0200
0300
0010
0000
1000
0001
0100
0010
1000
0000
0100
0000
0010
0000
0001
0000
1000
0000
0010
0000
0100
0000
0001
0000
0010
0000
0100
0000
1000
0010
1000
0010
,  // measure 21
0200
0300
0001
0000
1000
0010
0100
0001
0010
0000
0100
0000
1000
0000
0010
0000
0100
0000
0001
0000
0100
0000
0010
0000
1000
0000
0100
0000
0001
0010
0100
1000
,  // measure 22
0020
0030
0001
0000
0100
0001
0010
0100
1000
0000
0100
0000
0010
0000
0001
0000
0100
0000
0010
0000
1000
0000
0001
0000
0100
0000
0010
0000
1000
0001
0010
0100
,  // measure 23
0020
0030
1000
0000
0010
1000
0010
0001
0100
0000
1000
0000
0010
0000
0100
0000
0001
0000
0010
0000
0100
0000
1000
0000
0100
0000
0010
0000
0001
0010
0100
1000
,  // measure 24
0002
0003
0010
0000
0100
1000
0010
0100
0001
0000
0010
0000
1000
0000
0100
0000
0010
0000
0001
0000
0100
0000
0010
0000
1000
0000
0100
0000
0010
0001
1000
0100
,  // measure 25
0002
0003
0010
0000
0100
0010
1000
0001
0100
0000
0010
0000
1000
0000
0100
0000
0010
0000
0001
0000
0010
0000
0100
0000
0001
0000
1000
0000
0010
0100
0001
0100
,  // measure 26
2020
3030
0000
0000
0000
0000
0000
0000
0000
0000
0000
0000
0000
0000
0000
0000
0000
0000
0000
0000
0000
0000
0000
0000
0000
0000
0000
0000
0000
0000
0000
0000
,  // measure 27
0000
0000
0000
0000
,  // measure 28
0022
0033
0000
0000
0000
0000
0000
0000
0000
0000
0000
0000
0000
0000
0000
0000
0000
0000
0000
0000
0000
0000
0000
0000
0000
0000
0000
0000
0000
0000
0000
0000
,  // measure 29
0000
0000
0000
0000
,  // measure 30
0220
0330
0000
0000
0000
0000
0000
0000
0000
0000
0000
0000
0000
0000
0000
0000
0000
0000
0000
0000
0000
0000
0000
0000
0000
0000
0000
0000
0000
0000
0000
0000
,  // measure 31
0000
0000
0000
0000
,  // measure 32
2002
3003
0100
0000
0010
0000
0001
0000
1000
0000
0010
0000
0100
0000
0001
0000
0010
0000
0100
0000
1000
0000
0001
0000
0010
0000
0100
0000
0010
0000
0001
0000
,  // measure 33
1000
0100
0010
0100
1000
0001
0010
0100
0010
0001
1000
0100
0010
0100
1000
0001
0010
0100
0010
0001
1000
0100
0010
0100
1000
0001
0010
0100
0010
0001
1000
0100
,  // measure 34
0022
0033
0000
0000
0000
0000
0000
0000
1000
0000
0000
0000
0000
0000
0000
0000
0000
0000
0000
0000
0000
0000
0000
0000
0100
0000
0000
0000
0000
0000
0000
0000
,  // measure 35
0000
0010
0000
0001
,  // measure 36
0220
0330
0000
0000
0000
0000
0000
0000
0001
0000
0000
0000
0000
0000
0000
0000
0000
0000
0000
0000
0000
0000
0000
0000
1000
0000
0000
0000
0000
0000
0000
0000
,  // measure 37
0000
0010
0000
0001
,  // measure 38
2200
3300
0000
0000
0000
0000
0000
0000
0010
0000
0000
0000
0000
0000
0000
0000
0000
0000
0000
0000
0000
0000
0000
0000
0001
0000
0000
0000
0000
0000
0000
0000
,  // measure 39
0000
0100
0000
0010
,  // measure 40
0220
0330
0001
0000
1000
0000
0001
0000
0100
0000
0010
0000
1000
0000
0001
0000
0100
0000
0010
0000
1000
0000
0001
0000
0010
0000
0100
0000
1000
0000
0100
0000
,  // measure 41
0010
0000
0001
0010
0100
1000
0100
0001
0100
0010
1000
0001
0010
1000
0100
0001
1000
0100
0010
1000
0001
0010
0100
0001
1000
0010
0100
0001
1000
0010
0100
0001
,  // measure 42
1000
0000
0001
0000
0100
0000
0010
0000
1000
0000
0100
0000
0010
0000
0001
0000
1000
0000
0010
0000
0100
0000
0001
0000
1000
0000
0100
0000
0010
0001
0010
0001
,  // measure 43
0010
0000
0100
0000
1000
0000
0001
0000
0100
0000
0010
0000
1000
0000
0001
0000
0010
0000
0100
0000
1000
0000
0100
0000
0010
0000
0001
0000
1000
0100
0010
0001
,  // measure 44
1000
0000
0100
0000
1000
0000
0001
0000
0100
0000
0010
0000
1000
0001
0100
0010
1000
0000
0100
0000
0010
0000
0001
0000
0010
0000
0100
0000
1000
0001
0010
0100
,  // measure 45
1000
0000
0100
0000
0010
0000
0001
0000
1000
0000
0010
0000
0100
0000
0001
0000
0010
0000
0100
0000
1000
0000
0100
0000
0010
0000
0001
0000
0100
1000
0010
0100
,  // measure 46
1000
0000
0001
0000
0100
0000
0010
0000
1000
0000
0100
0000
0010
0000
0001
0000
1000
0000
0010
0000
0100
0000
0001
0000
1000
0000
0100
0000
0010
0001
0010
0001
,  // measure 47
0010
0000
0100
0000
1000
0000
0001
0000
0100
0000
0010
0000
1000
0000
0001
0000
0010
0000
0100
0000
1000
0000
0100
0000
0010
0000
0001
0000
1000
0100
0010
0001
,  // measure 48
1000
0000
0100
0000
1000
0000
0001
0000
0100
0000
0010
0000
1000
0001
0100
0010
1000
0000
0100
0000
0010
0000
0001
0000
0010
0000
0100
0000
1000
0001
0010
0100
,  // measure 49
1000
0000
0100
0000
0010
0000
0001
0000
1000
0000
0010
0000
0100
0000
0001
0000
0010
0000
0100
0000
1000
0000
0100
0000
0010
0000
0001
0000
0100
1000
0010
0100
,  // measure 50
0001
0000
0010
0000
0100
0000
0001
0000
1000
0000
0010
0000
0100
1000
0100
0001
0010
0000
0100
0000
1000
0000
0001
0000
0100
0000
0010
0000
1000
0000
0001
0000
,  // measure 51
0010
0000
0100
0000
1000
0000
0001
0000
0100
0000
0010
0000
1000
0000
0100
0000
0001
0010
0001
0010
1000
0000
0100
0000
0001
0000
0010
0000
1000
0100
0010
0001
,  // measure 52
1000
0000
0010
0000
0100
0000
0001
0000
1000
0000
0010
0000
0100
0001
0100
0001
0100
0000
1000
0000
0010
0000
0100
0000
0001
0000
0010
0000
0100
0000
1000
0000
,  // measure 53
0001
0000
0100
0000
0010
0000
1000
0000
0001
0000
0100
0000
0010
0000
0001
0000
1000
0100
0010
0001
0100
0000
1000
0000
0010
0000
0100
0000
0001
0010
0100
1000
,  // measure 54
0001
0000
0010
0000
0100
0000
1000
0000
0001
0000
0100
0000
0010
0001
1000
0100
0010
0000
0001
0000
0100
0000
0010
0000
1000
0000
0001
0000
0010
0000
0100
0000
,  // measure 55
1000
0001
0100
0010
1000
0001
0100
0000
0010
0000
0001
0000
0100
0000
0010
0000
1000
0001
0010
0100
1000
0000
0001
0000
0100
0000
0010
0000
1000
0100
0010
0001
,  // measure 56
1000
0100
0001
0100
0010
1000
0010
0100
0001
0100
0010
0001
0010
0100
0001
0100
,  // measure 57
1000
0010
1000
0001
0100
0010
1000
0001
0100
0001
0010
0100
1000
0100
0010
0001
,  // measure 58
0000
0000
0000
0000
,  // measure 59
0020
0030
1000
0000
0001
0000
0000
0000
0010
0100
0001
1000
0010
0000
0000
0000
0100
0000
1000
0000
0001
0000
0000
0000
0100
0000
0010
0000
1000
0000
0000
0000
,  // measure 60
0001
0000
0100
0000
0010
0000
0000
0000
0001
0000
0010
0000
0100
0000
0000
0000
1000
0001
1000
0001
1000
0000
0100
0000
0010
0000
0100
0000
0001
0000
0000
0000
,  // measure 61
0200
0300
0010
0000
1000
0000
0000
0000
0100
0010
1000
0001
0010
0000
0000
0000
0100
0000
0010
0000
1000
0000
0000
0000
0001
0000
0100
0000
0010
0000
0000
0000
,  // measure 62
1000
0000
0001
0000
0100
0000
0000
0000
0010
0000
0001
0000
1000
0000
0000
0000
0010
0100
0001
1000
0010
0000
0001
0000
0200
0300
1000
0000
0010
0000
0000
0000
,  // measure 63
0002
0003
0100
0000
1000
0000
0000
0000
0001
1000
0001
1000
0001
0000
0000
0000
0010
0000
0100
0000
1000
0000
0000
0000
0100
0000
0010
0000
0001
0000
0000
0000
,  // measure 64
0001
0000
0010
0000
1000
0000
0000
0000
0100
0000
0001
0000
0010
0000
0000
0000
1000
0100
0010
0001
1000
0000
0010
0000
0100
0000
0010
0000
0100
0000
0000
0000
,  // measure 65
0002
0003
0100
0000
0010
0000
0000
0000
0100
0010
1000
0001
0010
0000
0000
0000
0100
0000
0010
0000
1000
0000
0000
0000
0001
0000
0100
0000
0010
0000
0000
0000
,  // measure 66
2001
0010
0100
0000
0001
0100
0010
0000
0100
0010
0001
0000
0010
0100
0010
0000
,  // measure 67
3222
0330
1000
0000
0100
0000
0000
0000
0010
0000
0100
0000
1000
0000
0000
0000
0010
0000
1000
0000
0100
0000
0010
0000
0000
0000
0010
0000
0100
0000
1000
0000
,  // measure 68
0010
1000
0100
0000
0010
0100
1000
0000
0010
0100
0010
1000
0000
0100
0010
0100
,  // measure 69
2223
3030
0001
0000
0010
0000
0000
0000
0001
0000
1000
0000
0010
0000
0000
0000
0001
0000
0010
0000
1000
0000
0001
0000
0000
0000
0001
0000
1000
0000
0010
0000
,  // measure 70
0001
1000
0010
0000
1000
0010
1000
0000
0001
0010
1000
0001
0000
0010
0001
1000
,  // measure 71
2322
0033
0100
0000
0001
0000
0000
0000
0010
0000
0100
0000
0001
0000
0000
0000
0010
0000
0001
0000
0100
0000
0010
0000
3001
0000
0010
0000
0100
0000
1000
0000
,  // measure 72
0001
0000
0000
0000
0010
0000
0000
0000
0100
0000
0000
0000
1000
0000
0000
0000
0001
0000
0000
0000
0010
0000
0000
0000
0100
0000
0000
0000
1000
0000
0000
0000
0001
0000
0000
0000
0010
0000
0000
0000
0100
0000
0000
0000
1000
0000
0000
0000
0001
0000
0000
0000
0000
0000
0010
0000
0000
0000
0000
0000
0100
0000
0000
0000
0000
0000
1000
0000
0000
0000
0000
0000
0001
0000
0000
0000
0000
0000
0010
0000
0000
0000
0000
0000
0100
0000
0000
0000
0000
0000
1000
0000
0000
0000
0000
0000
0002
0000
0000
0000
0000
0000
0003
0000
0000
0000
0000
0000
0000
0000
0000
0000
0010
0000
0000
0000
0000
0000
0000
0000
0000
0000
0000
0000
0000
0000
0000
0000
0100
0000
0000
0000
0000
0000
0000
0000
0000
0000
0000
0000
0000
0000
0000
0000
1000
0000
0000
0000
0000
0000
0000
0000
0000
0000
0000
0000
0000
0000
0000
0000
0001
0000
0000
0000
0000
0000
0000
0000
0000
0000
0000
0000
0000
0000
0000
0000
1000
0000
0000
0000
0000
0000
0000
0000
0000
0000
0000
0000
0000
0000
0000
0000
,  // measure 73
0222
0303
0100
0000
1000
0000
0000
0000
0100
0000
0001
0000
1000
0000
0000
0000
0100
0000
1000
0000
0001
0000
0100
0000
0000
0000
0001
0000
1000
0000
0100
0000
,  // measure 74
0001
0100
1000
0000
0001
1000
0100
0000
0001
1000
0100
1000
0000
0001
0100
1000
,  // measure 75
0232
0303
0000
0000
0000
0000
0000
0000
0000
0000
0000
0000
0000
0000
0000
0000
0000
0000
0000
0000
0000
0000
0000
0000
0000
0000
0000
0000
0000
0000
0000
0000
,  // measure 76
0000
0000
0000
0000
,  // measure 77
0220
0330
0000
0000
0000
0000
0000
0000
0000
0000
0000
0000
0000
0000
0000
0000
0000
0000
0000
0000
0000
0000
0000
0000
0000
0000
0000
0000
0000
0000
0000
0000
,  // measure 78
0000
0000
0000
0000
,  // measure 79
2200
3300
0000
0000
0000
0000
0000
0000
0000
0000
0000
0000
0000
0000
0000
0000
0000
0000
0000
0000
0000
0000
0000
0000
0000
0000
0000
0000
0000
0000
0000
0000
,  // measure 80
0000
0000
0000
0000
,  // measure 81
2002
3003
0100
0000
0010
0000
0001
0000
0010
0000
0100
0000
1000
0000
0100
0000
0001
0000
1000
0000
0010
0000
0100
0000
0001
0000
0010
0000
0100
0000
1000
0000
,  // measure 82
0001
0100
0010
1000
0001
0100
0010
1000
0001
0010
0100
1000
0001
0010
0100
1000
0100
0010
0001
1000
0100
0010
0001
1000
0010
0100
0001
1000
0010
0100
0001
1000
,  // measure 83
0020
0030
0100
0000
0010
0000
0000
0000
0001
0000
1000
0000
0001
0000
0000
0000
0100
0000
0010
0000
0100
0000
0000
0000
0001
0000
0010
0000
0100
0000
1000
0000
,  // measure 84
0002
0003
0100
0000
0001
0000
0000
0000
1000
0000
0010
0000
1000
0000
0000
0000
1000
0000
0100
0000
1000
0000
0000
0000
0001
0000
0100
0000
0010
0000
1000
0000
,  // measure 85
0200
0300
0001
0000
0100
0000
0000
0000
0010
0000
0100
0000
0010
0000
0000
0000
0001
0000
0010
0000
0001
0000
0000
0000
1000
0000
0100
0000
0010
0000
0001
0000
,  // measure 86
2000
3000
0100
0000
1000
0000
0000
0000
0001
0000
0100
0000
0010
0000
0000
0000
1000
0000
0100
0000
0010
0000
0000
0000
0002
0003
0010
0000
0100
0000
1000
0000
,  // measure 87
0002
0003
0100
0000
0001
0000
0000
0000
0100
0000
0010
0000
0100
0000
0000
0000
1000
0000
0010
0000
1000
0000
0000
0000
1000
0000
0100
0000
0010
0000
0001
0000
,  // measure 88
2000
3000
0010
0000
0100
0000
0000
0000
0001
0000
1000
0000
0010
0000
0000
0000
0100
0000
0001
0000
1000
0000
0000
0000
0010
0000
0100
0000
0001
0000
0010
0000
,  // measure 89
1000
0100
0010
0001
1000
0100
0010
0001
1000
0100
0010
0001
1000
0100
0010
0001
,  // measure 90
1000
0100
0010
0001
1000
0100
0010
0001
1000
0100
0010
0001
1000
0100
0010
0001
1000
0100
0010
0001
1000
0100
0010
0001
1000
0100
0010
0001
1000
0100
0010
0001
,  // measure 91
1000
0000
0001
0000
0100
0000
0010
0000
1000
0000
0100
0000
0010
0000
0001
0000
1000
0000
0010
0000
0100
0000
0001
0000
1000
0000
0100
0000
0010
0001
0010
0001
,  // measure 92
0010
0000
0100
0000
1000
0000
0001
0000
0100
0000
0010
0000
1000
0000
0001
0000
0010
0000
0100
0000
1000
0000
0100
0000
0010
0000
0001
0000
1000
0100
0010
0001
,  // measure 93
1000
0000
0100
0000
1000
0000
0001
0000
0100
0000
0010
0000
1000
0001
0100
0010
1000
0000
0100
0000
0010
0000
0001
0000
0010
0000
0100
0000
1000
0001
0010
0100
,  // measure 94
1000
0000
0100
0000
0010
0000
0001
0000
1000
0000
0010
0000
0100
0000
0001
0000
0010
0000
0100
0000
1000
0000
0100
0000
0010
0000
0001
0000
0100
1000
0010
0100
,  // measure 95
1000
0000
0001
0000
0100
0000
0010
0000
1000
0000
0100
0000
0010
0000
0001
0000
1000
0000
0010
0000
0100
0000
0001
0000
1000
0000
0100
0000
0010
0001
0010
0001
,  // measure 96
0010
0000
0100
0000
1000
0000
0001
0000
0100
0000
0010
0000
1000
0000
0001
0000
0010
0000
0100
0000
1000
0000
0100
0000
0010
0000
0001
0000
1000
0100
0010
0001
,  // measure 97
1000
0000
0100
0000
1000
0000
0001
0000
0100
0000
0010
0000
1000
0001
0100
0010
1000
0000
0100
0000
0010
0000
0001
0000
0010
0000
0100
0000
1000
0001
0010
0100
,  // measure 98
1000
0000
0100
0000
0010
0000
0001
0000
1000
0000
0010
0000
0100
0000
0001
0000
0010
0000
0100
0000
1000
0000
0100
0000
0010
0000
0001
0000
0100
1000
0010
0100
,  // measure 99
0001
0000
0010
0000
0100
0000
0001
0000
1000
0000
0010
0000
0100
1000
0100
0001
0010
0000
0100
0000
1000
0000
0001
0000
0100
0000
0010
0000
1000
0000
0001
0000
,  // measure 100
0010
0000
0100
0000
1000
0000
0001
0000
0100
0000
0010
0000
1000
0000
0100
0000
0001
0010
0001
0010
1000
0000
0100
0000
0001
0000
0010
0000
1000
0100
0010
0001
,  // measure 101
1000
0000
0010
0000
0100
0000
0001
0000
1000
0000
0010
0000
0100
0001
0100
0001
0100
0000
1000
0000
0010
0000
0100
0000
0001
0000
0010
0000
0100
0000
1000
0000
,  // measure 102
0001
0000
0100
0000
0010
0000
1000
0000
0001
0000
0100
0000
0010
0000
0001
0000
1000
0100
0010
0001
0100
0000
1000
0000
0010
0000
0100
0000
0001
0010
0100
1000
,  // measure 103
0001
0000
0000
0000
0000
0000
0000
0000
0000
0000
0000
0000
0010
0000
0000
0000
0000
0000
0000
0000
0000
0000
0000
0000
0100
0000
0000
0000
0000
0000
0000
0000
0000
0000
0000
0000
1000
0000
0000
0000
0000
0000
0000
0000
0000
0000
0000
0000
0001
0000
0000
0000
0000
0000
0000
0000
0000
0000
0000
0000
0000
0000
0000
0000
0010
0000
0000
0000
0000
0000
0000
0000
0000
0000
0000
0000
0000
0000
0000
0000
0100
0000
0000
0000
0000
0000
0000
0000
0000
0000
0000
0000
0000
0000
0000
0000
1000
0000
0000
0000
0000
0000
0000
0000
0000
0000
0000
0000
0001
0000
0000
0000
0000
0000
0000
0000
0000
0000
0000
0000
0100
0000
0000
0000
0000
0000
0000
0000
0000
0000
0000
0000
0010
0000
0000
0000
0000
0000
0000
0000
0000
0000
0000
0000
0001
0000
0000
0000
0000
0000
0000
0000
0000
0000
0000
0000
0100
0000
0000
0000
0000
0000
0000
0000
0000
0000
0000
0000
0010
0000
0000
0000
0000
0000
1000
0000
0000
0000
0000
0000
0001
0000
0000
0000
0000
0000
0100
0000
0000
0000
0000
0000
,  // measure 104
0010
0001
0100
0010
1000
0001
0100
0000
0010
0000
0001
0000
0100
0000
0010
0000
1000
0001
0010
0100
1000
0000
0001
0000
0100
0000
0010
0000
1000
0100
0010
0001
,  // measure 105
1000
0100
0001
0100
0010
1000
0010
0100
0001
0100
0010
0001
0010
0100
0001
0100
,  // measure 106
1000
0010
1000
0001
0100
0010
1000
0001
0100
0001
0010
0100
1000
0100
0010
0001
,  // measure 107
1000
0000
0000
0000
0000
0000
0000
0000
0000
0000
0000
0000
0100
0000
0000
0000
0000
0000
0000
0000
0000
0000
0000
0000
0010
0000
0000
0000
0000
0000
0000
0000
0000
0000
0000
0000
0001
0000
0000
0000
0000
0000
0000
0000
0000
0000
0000
0000
1000
0000
0000
0000
0000
0000
0000
0000
0000
0000
0000
0000
0100
0000
0000
0000
0000
0000
0000
0000
0000
0000
0000
0000
0010
0000
0000
0000
0000
0000
0000
0000
0000
0000
0000
0000
0001
0000
0000
0000
0000
0000
0000
0000
0000
0000
0000
0000
1000
0000
0000
0000
0000
0000
0100
0000
0000
0000
0000
0000
0010
0000
0000
0000
0000
0000
0001
0000
0000
0000
0000
0000
1000
0000
0000
0000
0000
0000
0100
0000
0000
0000
0000
0000
0010
0000
0000
0000
0000
0000
0001
0000
0000
0000
0000
0000
1000
0000
0000
0000
0100
0000
0000
0000
0010
0000
0000
0000
0001
0000
0000
0000
1000
0000
0000
0000
0100
0000
0000
0000
0010
0000
0000
0000
0001
0000
0000
0000
1000
0000
0000
0000
0100
0000
0000
0000
0010
0000
0000
0000
0001
0000
0000
0000
,  // measure 108
2000
0000
0000
0000
0000
0000
0000
0000
0000
0000
0000
0000
0000
0000
0000
0000
0000
0000
0000
0000
0000
0000
0000
0000
0000
0000
0000
0000
0000
0000
0000
0000
0000
0000
0000
0000
0000
0000
0000
0000
0000
0000
3000
0000
0000
0000
0000
0000
1000
0000
0000
0000
0100
0000
0000
0000
0010
0000
0000
0000
0001
0000
0000
0000
1000
0000
0000
0000
0100
0000
0000
0000
0010
0000
0000
0000
0001
0000
0000
0000
1000
0000
0000
0000
0100
0000
0000
0000
0010
0000
0000
0000
0001
0000
0000
0000
1000
0000
0000
0000
0000
0000
0100
0000
0000
0000
0000
0000
0010
0000
0000
0000
0000
0000
0001
0000
0000
0000
0000
0000
1000
0000
0000
0000
0000
0000
0100
0000
0000
0000
0000
0000
0010
0000
0000
0000
0000
0000
0001
0000
0000
0000
0000
0000
1000
0000
0000
0000
0000
0000
0000
0000
0000
0000
0000
0000
0100
0000
0000
0000
0000
0000
0000
0000
0000
0000
0000
0000
0010
0000
0000
0000
0000
0000
0000
0000
0000
0000
0000
0000
0001
0000
0000
0000
0000
0000
0000
0000
0000
0000
0000
0000
,  // measure 109
2000
0000
0000
0000
,  // measure 110
3000
0000
0000
0000
;
